Скачать КЭЙОН! / EIGA K-ON! (Ямада Наоко) [2011, комедия, WEB-DLRip] | Многоголосая в Тас-икс (Tas-ix)

DL-List and Torrent activity
Size:  558 MB   |    Registered:  3 years 10 months   |    Completed:  1 time

Seeder not seen: 3 years 10 months

 
 
 
 
Author Message

iDroid ®

Gender: Male

Longevity: 4 years

Posts: 247

Location: Las-Vegas

Репутация: 1112 [+]

Наличие запрета:

[Profile] [PM]

Post 30-Jul-2017 15:18

[Quote]

КЭЙОН! / EIGA K-ON!- -
Год: 2011
Жанр: комедия
Страна: Япония
Продолжительность: 110 мин
Дата выпуска: 03.12.2011-Режиссер: Ямада Наоко
Озвучивание: Eladiel & Azart & Say & Zlo & Silv
Перевод: Многоголосая
Студия: Kyoto Animation-Качество: WEB-DLRip
Формат: MPEG-4
Видео: XviD, 600 Kbps, 626x352
Аудио: AAC, 2 channels, 96.0 Kbps-Описание: Продолжение истории про участниц клуба лёгкой музыки. На этот раз, в честь окончания школы, девчонки решили сделать себе маленький подарок - слетать за границу! И после долгих и серьёзных раздумий выбор пал на Лондон, колыбель рок-музыки!
-

Скриншоты

MediaInfo

General
Format : MPEG-4
Format profile : Base Media
Codec ID : isom (isom/iso2/avc1/mp41)
File size : 279 MiB
Duration : 54mn 54s
Overall bit rate : 711 Kbps
Writing application : Lavf54.22.100
Video
ID : 1
Format : AVC
Format/Info : Advanced Video Codec
Format profile : [email protected]
Format settings, CABAC : Yes
Format settings, ReFrames : 5 frames
Codec ID : avc1
Codec ID/Info : Advanced Video Coding
Duration : 54mn 54s
Bit rate : 600 Kbps
Width : 640 pixels
Height : 352 pixels
Display aspect ratio : 16:9
Original display aspect ratio : 16:9
Frame rate mode : Constant
Frame rate : 25.000 fps
Color space : YUV
Chroma subsampling : 4:2:0
Bit depth : 8 bits
Scan type : Progressive
Bits/(Pixel*Frame) : 0.107
Stream size : 239 MiB (86%)
Writing library : x264 core 125 r2 d9d2288
Encoding settings : cabac=1 / ref=5 / deblock=1:0:0 / analyse=0x3:0x113 / me=umh / subme=8 / psy=1 / psy_rd=1.00:0.00 / mixed_ref=1 / me_range=16 / chroma_me=1 / trellis=1 / 8x8dct=1 / cqm=0 / deadzone=21,11 / fast_pskip=1 / chroma_qp_offset=-2 / threads=2 / lookahead_threads=1 / sliced_threads=0 / nr=0 / decimate=1 / interlaced=0 / bluray_compat=0 / constrained_intra=0 / bframes=3 / b_pyramid=2 / b_adapt=2 / b_bias=0 / direct=3 / weightb=1 / open_gop=0 / weightp=2 / keyint=25 / keyint_min=2 / scenecut=40 / intra_refresh=0 / rc_lookahead=25 / rc=abr / mbtree=1 / bitrate=600 / ratetol=1.0 / qcomp=0.60 / qpmin=0 / qpmax=69 / qpstep=4 / ip_ratio=1.40 / aq=1:1.00
Language : English
Audio
ID : 2
Format : AAC
Format/Info : Advanced Audio Codec
Format profile : LC
Codec ID : 40
Duration : 54mn 54s
Duration_LastFrame : -1ms
Bit rate mode : Constant
Bit rate : 96.0 Kbps
Channel(s) : 2 channels
Channel positions : Front: L R
Sampling rate : 44.1 KHz
Frame rate : 43.066 fps (1024 spf)
Compression mode : Lossy
Stream size : 37.7 MiB (13%)
Default : Yes
Alternate group : 1
[mytorrents.biz].t658805.torrent
Torrent: Registered [ 2017-07-30 15:18 ] · C8CA6CD7E1EA7E2F35F9047FEA54CBEF4409FFE0

Download .torrent

Download


Помочь трекеру

Status: checked
Size: 558 MB   (Completed: 1 times)
Rate: 
(Vote: 3)
Has thanked: 2  Thanks   (List)
Золото/Серебро:

Инструкция
Похожие темы

Catalyst

Gender: Male

Longevity: 9 years 5 months

Posts: 932

Location: undefined

Репутация: 4138 [+]

Наличие запрета:

[Profile] [PM]

Post 04-Aug-2018 09:40 (after 1 year)

[Quote]

Чудесное аниме, полное няшек икавая) Спасибо= )
--
лучше поздно чем никогда)


Last edited by Catalyst on 2018-08-04 10:15; edited 1 time in total

iDroid ®

Gender: Male

Longevity: 4 years

Posts: 247

Location: Las-Vegas

Репутация: 1112 [+]

Наличие запрета:

[Profile] [PM]

Post 04-Aug-2018 10:07 (after 27 minutes)

[Quote]

1398464Чудесное аниме, полное няшек икавая) Спасибо= )
нз:)
Display posts:    
Reply to topic

Current time is: 22-Jun 19:01

All times are UTC + 5



You cannot post new topics in this forum
You cannot reply to topics in this forum
You cannot edit your posts in this forum
You cannot delete your posts in this forum
You cannot vote in polls in this forum
You cannot attach files in this forum
You cannot download files in this forum