Скачать Храброе Сердце / Braveheart (Мэл Гибсон / Mel Gibson) [1995 г., драма, военный, биография, история, BDRip-AVC] в Тас-икс (Tas-ix)

DL-List and Torrent activity
Size:  2.91 GB   |    Registered:  2 years 8 months   |    Completed:  4 times

Seeder not seen: 2 years

 
 
 
 
Author Message

BUDRO ®

Gender: Male

Longevity: 2 years 10 months

Posts: 136

Location: Навои

Репутация: 147 [+]

Наличие запрета:

[Profile] [PM]

Post 24-Sep-2018 22:36

[Quote]

Храброе Сердце- --Год выпуска: 1995
Страна: США
Жанр: Драма, военный, биография, история
Продолжительность: 02:57:34
Перевод: Профессиональный дублирование--Режиссер: Мэл Гибсон / Mel Gibson--В ролях: Мэл Гибсон /Mel Gibson/, Джеймс Робинсон /James Robinson/, Шон Лоулор /Sean Lawlor/, Сэнди Нельсон /Sandy Nelson/, Джеймс Космо /James Cosmo/, Шон МакГинли /Sean McGinley/, Алан Толл /Alan Tall/, Эндрю Вейр /Andrew Weir/, Герда Стивенсон /Gerda Stevenson/, Ральф Райч /Ralph Riach/-- : Действие фильма начинается в 1280 году в Шотландии. Это история легендарного национального героя Уильяма Уолласа, посвятившего себя борьбе с англичанами при короле Эдварде Длинноногом.
Он рано лишился отца, погибшего от рук англичан, и его забрал к себе дядя Оргайл, который дал ему хорошее образование в Европе. На родину Уильям возвращается уже взрослым человеком, мечтающем завести семью и жить мирной жизнью.
Но судьба распорядилась иначе. Его невесту убили англичане, и он начал свой крестовый поход за свободу.-- Качество: BDRip-AVC
Формат: MKV
Видео кодек: H.264, 1056x448, 23.976 fps, 1771 kb/s
Аудио кодек: AC3, 48.0 kHz, 6 channels, 384 kb/s (Русский)
Аудио кодек 2: AC3, 48.0 kHz, 2 channels, 192 kb/s (Английский)--

Рейтинг фильма -Награды и кинопремии --

Mediainfo

General
Unique ID : 175797640836502762712049443616461045171 (0x844164E1604381FC87609FE897F23DB3)
Complete name : G:\Новая папка (2)\Храброе сердце. 1995.mkv
Format : Matroska
Format version : Version 2
File size : 2.91 GiB
Duration : 2 h 57 min
Overall bit rate : 2 348 kb/s
Movie name : Braveheart 1995 - The Jolly Roger by Pirat.Ca [zyyx]
Encoded date : UTC 2012-06-16 17:38:13
Writing application : mkvmerge v4.9.1 ('Ich will') сборка от Jul 11 2011 23:53:15
Writing library : libebml v1.2.1 + libmatroska v1.1.1
Video
ID : 1
Format : AVC
Format/Info : Advanced Video Codec
Format profile : [email protected]
Format settings : CABAC / 16 Ref Frames
Format settings, CABAC : Yes
Format settings, ReFrames : 16 frames
Codec ID : V_MPEG4/ISO/AVC
Duration : 2 h 57 min
Bit rate : 1 771 kb/s
Width : 1 056 pixels
Height : 448 pixels
Display aspect ratio : 2.35:1
Frame rate mode : Constant
Frame rate : 23.976 FPS
Color space : YUV
Chroma subsampling : 4:2:0
Bit depth : 8 bits
Scan type : Progressive
Bits/(Pixel*Frame) : 0.156
Stream size : 2.14 GiB (73%)
Title : R.G. Jolly Roger
Writing library : x264 core 116 r2044 392e762
Encoding settings : cabac=1 / ref=16 / deblock=1:-2:-2 / analyse=0x3:0x133 / me=umh / subme=10 / psy=1 / psy_rd=1.00:0.10 / mixed_ref=1 / me_range=40 / chroma_me=1 / trellis=2 / 8x8dct=1 / cqm=0 / deadzone=21,11 / fast_pskip=0 / chroma_qp_offset=-3 / threads=9 / sliced_threads=0 / nr=0 / decimate=1 / interlaced=0 / bluray_compat=0 / constrained_intra=0 / bframes=10 / b_pyramid=2 / b_adapt=2 / b_bias=0 / direct=3 / weightb=1 / open_gop=0 / weightp=2 / keyint=250 / keyint_min=23 / scenecut=40 / intra_refresh=0 / rc_lookahead=50 / rc=2pass / mbtree=1 / bitrate=1771 / ratetol=1.0 / qcomp=0.60 / qpmin=0 / qpmax=69 / qpstep=4 / cplxblur=20.0 / qblur=0.5 / ip_ratio=1.40 / aq=1:1.00
Default : Yes
Forced : No
Audio #1
ID : 2
Format : AC-3
Format/Info : Audio Coding 3
Codec ID : A_AC3
Duration : 2 h 57 min
Bit rate mode : Constant
Bit rate : 384 kb/s
Channel(s) : 6 channels
Channel positions : Front: L C R, Side: L R, LFE
Sampling rate : 48.0 kHz
Frame rate : 31.250 FPS (1536 SPF)
Bit depth : 16 bits
Compression mode : Lossy
Stream size : 488 MiB (16%)
Title : RUS
Service kind : Complete Main
Default : Yes
Forced : No
Audio #2
ID : 3
Format : AC-3
Format/Info : Audio Coding 3
Codec ID : A_AC3
Duration : 2 h 57 min
Bit rate mode : Constant
Bit rate : 192 kb/s
Channel(s) : 2 channels
Channel positions : Front: L R
Sampling rate : 48.0 kHz
Frame rate : 31.250 FPS (1536 SPF)
Bit depth : 16 bits
Compression mode : Lossy
Stream size : 244 MiB (8%)
Title : ENG
Service kind : Complete Main
Default : No
Forced : No
[mytorrents.biz].t670644.torrent
Torrent: Registered [ 2018-09-24 22:36 ] · D91E750318C080CE67B04BEFE21A6B31AE81754E

Download .torrent

Download


Помочь трекеру

Status: checked
Size: 2.91 GB   (Completed: 4 times)
Rate: 
(Vote: 4)
Has thanked: 5  Thanks   (List)
Золото/Серебро:

Инструкция
Похожие темы

Roha

Gender: Male

Longevity: 9 years

Posts: 6

Location: Tashkent city

Репутация: 0 [+]

Наличие запрета:

[Profile] [PM]

Post 04-Apr-2019 09:23 (after 6 months 9 days)

[Quote]

дайте скачат
Display posts:    
Reply to topic

Current time is: 15-Jun 14:55

All times are UTC + 5



You cannot post new topics in this forum
You cannot reply to topics in this forum
You cannot edit your posts in this forum
You cannot delete your posts in this forum
You cannot vote in polls in this forum
You cannot attach files in this forum
You cannot download files in this forum