Скачать Алита: Боевой ангел в 3D / Alita: Battle Angel 3D (Роберт Родригес) [2019, фантастика, боевик, приключения] BD CEE в Тас-икс (Tas-ix)

DL-List and Torrent activity
Size:  11.62 GB   |    Registered:  1 year 11 months   |    Completed:  2 times

Seeder not seen: 1 year 6 months

 
 
 
 
Author Message

t-dirt ®

Gender: Male

Longevity: 3 years 7 months

Posts: 2449

Репутация: 359 [+]

Наличие запрета:

[Profile] [PM]

Post 17-Jul-2019 18:13

[Quote]

Алита: Боевой ангел в 3D / Alita: Battle Angel 3D -Год выпуска: 2019
Страна: Канада, Аргентина, США
Жанр: фантастика, боевик, приключения
Продолжительность: 02:01:57
Перевод: Профессиональный (полное дублирование, BD CEE)
Cубтитры: Есть (русские, английские)-Режиссёр: Роберт Родригес-В ролях: Роза Салазар, Кристоф Вальц, Дженнифер Коннелли, Махершала Али, Эд Скрейн, Джеки Эрл Хейли, Кин Джонсон, Хорхе Лендеборг мл., Лана Кондор, Идара Виктор-Описание: Действие фильма происходит через 300 лет после Великой войны в XXVI веке. Доктор Идо находит останки женщины-киборга. После починки киборг ничего не помнит, но обнаруживает, что в состоянии пользоваться боевыми приемами киборгов. Начинаются поиски утерянных воспоминаний.-КиноПоиск: 7,1
IMDb: 7,5-Формат 3D: Half OverUnder | Вертикальная анаморфная стереопара-Качество видео: BDRip 1080р
Формат видео: MKV
Видео кодек: H.264
Аудио кодек: AC3
Видео: 1920x1080 (16:9), 13000 kbps, 23.976 fps
Аудио: Russian, AC3, 6ch, 48 kHz, 640kbps
Субтитры #1: Russian, SRT
Субтитры #2: English, SRT
Субтитры #3: Russian (forced), SRT
Навигация по главам: есть-

Интересные факты

- Фильм основан на манге «Gunnm» Юкито Кисиро (1990-1995). В США манга была издана под названием «Боевой ангел Алита» («Battle Angel Alita»).
- Продюсер Джеймс Кэмерон и режиссёр Роберт Родригес рассматривали на главную роль четырёх актрис — Зендею, Розу Салазар, Майку Монро и Беллу Торн. В конце концов на роль утвердили Салазар.
- Рассмотреть кандидатуру Кристофа Вальца на роль доктора Дисона Идо Роберту Родригесу предложил их общий друг Квентин Тарантино.
- В начале декабря 2005 года на сайте компании Mali Finn Casting был объявлен набор кандидаток на главную роль в фильме. Позже выяснилось, что произошла ошибка, и актриса требовалась на роль в фантастическом фильме Джеймса Кэмерона «Аватар» (2009).
- На роль Хьюго претендовали актёры Эван Джогиа, Дуглас Бут, Джек Лауден и Ной Сильвер.

MI

Общее
Уникальный идентификатор : 226746356991433245938553742203227770946 (0xAA95C286E8C53DE1B2C9A0F365109042)
Полное имя : Алита: Боевой ангел в 3D.mkv
Формат : Matroska
Версия формата : Version 4
Размер файла : 11,6 Гбайт
Продолжительность : 2 ч. 1 м.
Общий поток : 13,6 Мбит/сек
Видео
Идентификатор : 1
Формат : AVC
Формат/Информация : Advanced Video Codec
Профиль формата : [email protected]
Настройки формата : CABAC / 4 Ref Frames
Параметр CABAC формата : Да
Параметр RefFrames формата : 4 кадра
Идентификатор кодека : V_MPEG4/ISO/AVC
Продолжительность : 2 ч. 1 м.
Битрейт : 13,0 Мбит/сек
Ширина : 1920 пикселей
Высота : 1080 пикселей
Соотношение сторон : 16:9
Режим частоты кадров : Постоянный
Частота кадров : 23,976 (24000/1001) кадра/сек
Цветовое пространство : YUV
Субдискретизация насыщенности : 4:2:0
Битовая глубина : 8 бит
Тип развёртки : Прогрессивная
Бит/(Пиксели*Кадры) : 0.261
Размер потока : 11,1 Гбайт (95%)
Библиотека кодирования : x264 core 146 r2538 121396c
Настройки программы : cabac=1 / ref=4 / deblock=1:-3:-3 / analyse=0x3:0x113 / me=umh / subme=10 / psy=1 / psy_rd=1.00:0.00 / mixed_ref=1 / me_range=32 / chroma_me=1 / trellis=2 / 8x8dct=1 / cqm=0 / deadzone=21,11 / fast_pskip=0 / chroma_qp_offset=-2 / threads=12 / lookahead_threads=2 / sliced_threads=0 / nr=0 / decimate=0 / interlaced=0 / bluray_compat=0 / constrained_intra=0 / bframes=9 / b_pyramid=2 / b_adapt=2 / b_bias=0 / direct=3 / weightb=1 / open_gop=0 / weightp=2 / keyint=250 / keyint_min=23 / scenecut=40 / intra_refresh=0 / rc_lookahead=60 / rc=2pass / mbtree=0 / bitrate=13000 / ratetol=1.0 / qcomp=0.70 / qpmin=0 / qpmax=69 / qpstep=4 / cplxblur=20.0 / qblur=0.5 / vbv_maxrate=40000 / vbv_bufsize=30000 / nal_hrd=none / filler=0 / frame-packing=4 / ip_ratio=1.40 / pb_ratio=1.30 / aq=1:0.70
Язык : English
Default : Да
Forced : Нет
Аудио
Идентификатор : 2
Формат : AC-3
Формат/Информация : Audio Coding 3
Коммерческое название : Dolby Digital
Идентификатор кодека : A_AC3
Продолжительность : 2 ч. 1 м.
Вид битрейта : Постоянный
Битрейт : 640 Кбит/сек
Каналы : 6 каналов
Channel layout : L R C LFE Ls Rs
Частота : 48,0 КГц
Частота кадров : 31,250 кадров/сек (1536 SPF)
Битовая глубина : 16 бит
Метод сжатия : С потерями
Размер потока : 558 Мбайт (5%)
Заголовок : Dub (BD CEE)
Язык : Russian
ServiceKind/String : Complete Main
Default : Да
Forced : Нет
Текст #1
Идентификатор : 3
Формат : UTF-8
Идентификатор кодека : S_TEXT/UTF8
Идентификатор кодека/Информация : UTF-8 Plain Text
Продолжительность : 2 ч. 1 м.
Битрейт : 50 бит/сек
ElementCount : 1264
Размер потока : 44,6 Кбайт (0%)
Заголовок : Full
Язык : Russian
Default : Нет
Forced : Нет
Текст #2
Идентификатор : 4
Формат : UTF-8
Идентификатор кодека : S_TEXT/UTF8
Идентификатор кодека/Информация : UTF-8 Plain Text
Продолжительность : 1 ч. 55 м.
Битрейт : 41 бит/сек
ElementCount : 1347
Размер потока : 34,9 Кбайт (0%)
Заголовок : Full
Язык : English
Default : Нет
Forced : Нет
Текст #3
Идентификатор : 5
Формат : UTF-8
Идентификатор кодека : S_TEXT/UTF8
Идентификатор кодека/Информация : UTF-8 Plain Text
Продолжительность : 1 ч. 56 м.
Битрейт : 0 бит/сек
ElementCount : 6
Размер потока : 245 байт (0%)
Заголовок : Forced
Язык : Russian
Default : Да
Forced : Да
Меню
00:00:00.000 : :1
00:03:28.625 : :2
00:07:51.678 : :3
00:10:07.981 : :4
00:13:06.701 : :5
00:15:06.739 : :6
00:18:04.540 : :7
00:22:58.710 : :8
00:25:35.325 : :9
00:31:40.897 : :10
00:33:29.214 : :11
00:36:32.815 : :12
00:38:30.891 : :13
00:42:05.481 : :14
00:45:58.213 : :15
00:48:31.449 : :16
00:52:57.007 : :17
00:55:14.351 : :18
01:00:39.760 : :19
01:02:56.563 : :20
01:05:16.786 : :21
01:10:50.496 : :22
01:13:37.287 : :23
01:16:35.215 : :24
01:18:52.226 : :25
01:22:48.296 : :26
01:24:55.340 : :27
01:28:25.216 : :28
01:33:18.551 : :29
01:36:08.761 : :30
01:41:54.690 : :31
01:45:23.442 : :32
01:48:16.488 : :33
01:51:43.654 : :34
01:54:43.667 : :35
01:56:51.503 : :36

Скриншоты

Comment from jnets


+5
[mytorrents.biz].t676025.torrent
Torrent: Registered [ 2019-07-17 18:13 ] · 9DA472CCE972E0687983B19E8BE6D71EAE08562D

Download .torrent

Download


Помочь трекеру

Status: checked
Size: 11.62 GB   (Completed: 2 times)
Rate: 
(Vote: 3)
Has thanked: 4  Thanks   (List)
Золото/Серебро:

Инструкция
Похожие темы

t-dirt ®

Gender: Male

Longevity: 3 years 7 months

Posts: 2449

Репутация: 359 [+]

Наличие запрета:

[Profile] [PM]

Post 17-Jul-2019 18:17 (after 3 minutes)

[Quote]

НЕ локализованная версия. зато аш61 - автор рипа, не поленился дополнить кастрированные форс субы, и превратить их в полноценные. за што ему особая благодарность.

timoha27

Gender: Male

Longevity: 9 years 3 months

Posts: 208

Репутация: 31 [+]

Наличие запрета:

[Profile] [PM]

Post 17-Jul-2019 22:48 (after 4 hours)

[Quote]

1434862НЕ локализованная версия. зато аш61 - автор рипа, не поленился дополнить кастрированные форс субы, и превратить их в полноценные. за што ему особая благодарность.
Спасибо за релиз.
Лучший модератор-релизер рутрекера(и не только).Всегда делает на все сто.

bingo

Gender: Unknown

Longevity: 4 years 8 months

Posts: 5

Репутация: 0 [+]

Наличие запрета:

[Profile] [PM]

Post 19-Jul-2019 22:57 (after 2 days)

[Quote]

Дайте пожалуйста скорости

bingo

Gender: Unknown

Longevity: 4 years 8 months

Posts: 5

Репутация: 0 [+]

Наличие запрета:

[Profile] [PM]

Post 23-Jul-2019 22:13 (after 3 days)

[Quote]

А это когда нибудь раздаваться будет?
Display posts:    
Reply to topic

Current time is: 18-Jun 23:26

All times are UTC + 5



You cannot post new topics in this forum
You cannot reply to topics in this forum
You cannot edit your posts in this forum
You cannot delete your posts in this forum
You cannot vote in polls in this forum
You cannot attach files in this forum
You cannot download files in this forum