Скачать Смешанные единоборства. UFC Fight Night 162: Maia vs. Askren (Full event) [2019 г., UFC, смешанные единоборства, HDTVRip] в Тас-икс (Tas-ix)

DL-List and Torrent activity
Size:  5.02 GB   |    Registered:  1 year 7 months   |    Completed:  10 times

Seeder not seen: 1 year 2 months

 
 
 
 
Author Message

NuRKHoNoFF ®

Gender: Male

Longevity: 3 years 2 months

Posts: 1052

Location: Каттакурган

Репутация: 226 [+]

Наличие запрета:

[Profile] [PM]

Post 28-Oct-2019 23:57

[Quote]

Смешанные единоборства. UFC Fight Night 162: Maia vs. Askren -Год выпуска: 2019
Страна: Россия, UFC ТВ
Жанр: MMA
Продолжительность: 05:25:58
Перевод: Русский [Без рекламы]-Описание: 26 октября на Singapore Indoor Stadium в Калланг (Сингапур) прошел турнир UFC Fight Night 162: Maia vs. Askren. Главным событием турнира стал поединок в полусреднем весе между ватерном UFC и двукратным претендентом на титул бразильцем Демианом Майей и экс-чемпионом Bellator и ONE американцем Беном Аскреном, схватка первоклассных грепплеров. Открыл основной кард поединок Муслима Салихова (15-2 MMA, 2-1 UFC) и Лаурино Старополи (9-1 MMA, 2-0 UFC). В предварительном карде выступили три бойца из России - Мовсар Евлоев (11-0 MMA, 1-0 UFC), Сергей Павлович (13-1 MMA, 1-1 UFC) и Александра Албу (3-1 MMA, 2-1 UFC)-Качество: HDTVRip
Формат: AVI
Видео: XviD, ~ 2000 Кбит/с, 720x400
Аудио: AC3, 2 ch, 192 Кбит/с-

MediaInfo

General
Complete name : 01.UFC.Fight.Night.162.Предварительный.Кард.Kinozal-Reliz.7turza.avi
Format : AVI
Format/Info : Audio Video Interleave
Format profile : OpenDML
File size : 2.39 GiB
Duration : 2 h 35 min
Overall bit rate : 2 199 kb/s
Writing library : VirtualDub build 35576/release
Video
ID : 0
Format : xvid
Codec ID : xvid
Duration : 2 h 35 min
Bit rate : 2 000 kb/s
Width : 720 pixels
Height : 400 pixels
Display aspect ratio : 16:9
Frame rate : 25.000 FPS
Bits/(Pixel*Frame) : 0.277
Stream size : 2.17 GiB (91%)
Audio
ID : 1
Format : AC-3
Format/Info : Audio Coding 3
Commercial name : Dolby Digital
Codec ID : 2000
Duration : 2 h 35 min
Bit rate mode : Constant
Bit rate : 192 kb/s
Channel(s) : 2 channels
Channel layout : L R
Sampling rate : 48.0 kHz
Frame rate : 31.250 FPS (1536 SPF)
Bit depth : 16 bits
Compression mode : Lossy
Stream size : 214 MiB (9%)
Alignment : Aligned on interleaves
Interleave, duration : 32 ms (0.80 video frame)
Interleave, preload duration : 512 ms
Service kind : Complete Main

[mytorrents.biz].t678114.torrent
Torrent: Registered [ 2019-10-28 23:57 ] · B2668AC60C4356C5650FDC6A331D88F6F8ED01C8

Download .torrent

Download


Помочь трекеру

Status: checked
Size: 5.02 GB   (Completed: 10 times)
Rate: 
(Vote: 1)
Has thanked: 1  Thanks   (List)
Золото/Серебро:

Инструкция
Похожие темы
Display posts:    
Reply to topic

Current time is: 22-Jun 17:52

All times are UTC + 5



You cannot post new topics in this forum
You cannot reply to topics in this forum
You cannot edit your posts in this forum
You cannot delete your posts in this forum
You cannot vote in polls in this forum
You cannot attach files in this forum
You cannot download files in this forum