Скачать Назад в будущее. Трилогия / Back To The Future Trilogy (Роберт Земекис) [1985, 1989, 1990, приключенченский фильм, комедия, фантастика, BDRip] в Тас-икс (Tas-ix)

DL-List and Torrent activity
Size:  6.55 GB   |    Registered:  1 year 2 months   |    Completed:  0 times

Seeder not seen: 1 year 2 months

 
 
 
 
Author Message

FHDL ®

Gender: Unknown

Longevity: 3 years 8 months

Posts: 15

Репутация: 14 [+]

Наличие запрета:

[Profile] [PM]

Post 14-Apr-2020 17:00

[Quote]

Раздача с 9-11:00 до 19-20:00

Назад в будущее / Back to the Future 1985

Название: Назад в будущее
Оригинальное название: Back to the Future
Год: 1985
Жанр: приключенченский фильм, комедия, фантастика
Страна: США
Режиссёр: Роберт Земекис / Robert Zemeckis
Продюссер: Боб Гейл, Нил Кэнтон / Bob Gale, Neil Canton
В ролях: Майкл Джей Фокс, Кристофер Ллойд, Томас Ф. Уилсон, Криспин Гловер, Леа Томпсон-Продолжительность: 01:56:01
Перевод: Дублированный + Оригинал-Описание: Подросток Марти с помощью машины времени, сооруженной его другом профессором Доком, попадает из 80-х в далекие 50-е. Там он встречается со своими будущими родителями, еще подростками, и другом-профессором, совсем молодым. Он нарушает естественный ход событий прошлого, чем вызывает массу смешных и драматических ситуаций. Собственная смекалка и фантазия профессора помогают преодолеть все препятствия и благополучно вернуться к себе, в свое время.-Бюджет: 19 млн долл.
Сборы: 381 109 762 долл.-IMDB: 8.3-Качество: BDRip
Формат: AVI
Видео: 704x384 (1.83-1), 23.976 fps, XviD build 72 ~1918 kbps avg, 0.30 bit-pixel
Аудио: 48 kHz, AC3 Dolby Digital, 3-2 (L,C,R,l,r) + LFE ch, ~384 kbps avg (RUS)
Аудио 2: 48 kHz, AC3 Dolby Digital, 3-2 (L,C,R,l,r) + LFE ch, ~384 kbps avg (ENG)

MediaInfo

General
Complete name : D:\КИНО\фильмы\Научная Фантастика, Фэнтези\Назад в будущее. Трилогия\Назад в будущее (Back to the Future) 1985.avi
Format : AVI
Format/Info : Audio Video Interleave
Format profile : OpenDML
File size : 2.18 GiB
Duration : 1h 56mn
Overall bit rate : 2 694 Kbps
Movie name : Назад в будущее / Back to the Future (1985) BDRip
Director : sociolog_melvas
Genre : фантастика, комедия
Writing application : VirtualDubMod 1.5.10.2 (build 2540/release)
Copyright : http://hqclub.net/
Comment : 17.07.2012
Video
ID : 0
Format : MPEG-4 Visual
Format profile : Advanced [email protected]
Format settings, BVOP : 1
Format settings, QPel : No
Format settings, GMC : No warppoints
Format settings, Matrix : Custom
Codec ID : XVID
Codec ID/Hint : XviD
Duration : 1h 56mn
Bit rate : 1 908 Kbps
Width : 704 pixels
Height : 384 pixels
Display aspect ratio : 1.85:1
Frame rate : 23.976 fps
Color space : YUV
Chroma subsampling : 4:2:0
Bit depth : 8 bits
Scan type : Progressive
Compression mode : Lossy
Bits/(Pixel*Frame) : 0.294
Stream size : 1.55 GiB (71%)
Writing library : XviD 72
Audio #1
ID : 1
Format : AC-3
Format/Info : Audio Coding 3
Mode extension : CM (complete main)
Format settings, Endianness : Big
Codec ID : 2000
Duration : 1h 56mn
Bit rate mode : Constant
Bit rate : 384 Kbps
Channel(s) : 6 channels
Channel positions : Front: L C R, Side: L R, LFE
Sampling rate : 48.0 KHz
Bit depth : 16 bits
Compression mode : Lossy
Stream size : 319 MiB (14%)
Alignment : Split accross interleaves
Interleave, duration : 42 ms (1.00 video frame)
Interleave, preload duration : 500 ms
Audio #2
ID : 2
Format : AC-3
Format/Info : Audio Coding 3
Mode extension : CM (complete main)
Format settings, Endianness : Big
Codec ID : 2000
Duration : 1h 56mn
Bit rate mode : Constant
Bit rate : 384 Kbps
Channel(s) : 6 channels
Channel positions : Front: L C R, Side: L R, LFE
Sampling rate : 48.0 KHz
Bit depth : 16 bits
Compression mode : Lossy
Stream size : 319 MiB (14%)
Alignment : Split accross interleaves
Interleave, duration : 42 ms (1.00 video frame)
Interleave, preload duration : 500 ms

Скриншот по названиям фильма

Скриншоты

Назад в будущее 2 / Back to the Future Part II 1989

Название: Назад в будущее 2
Оригинальное название: Back to the Future Part II
Год: 1989
Жанр: Приключения, фантастика, комедия
Страна: США
Режиссёр: Роберт Земекис / Robert Zemeckis
Продюссер: Нил Кэнтон, Боб Гейл / Neil Canton, Bob Gale
В ролях: Майкл Джей Фокс, Кристофер Ллойд, Томас Ф. Уилсон, Лиа Томпсон, Джеймс Толкан, Элизабет Шу-Продолжительность: 01:47:59
Перевод: Дублированный + Оригинал-Описание: Продолжение фантастической истории о приключениях американского подростка во времени. На этот раз с помощью модернизированной Доком машины времени Марти из 80-х попадает в будущее.
Дети Марти в беде, и их надо выручать. Приходится повозиться со злодеем…-Бюджет: 40 млн долл.
Сборы: 331 950 002 долл.-IMDB: 7.8-Качество: BDRip
Формат: AVI
Видео: Xvid 704x384 23.976fp
Аудио: Dolby AC3 48000Hz 6ch 448kbps (RUS)
Аудио 2: Dolby AC3 48000Hz 6ch 448kbps (ENG)

MediaInfo

General
Complete name : D:\КИНО\фильмы\Научная Фантастика, Фэнтези\Назад в будущее. Трилогия\Назад в будущее 2 (Back to the Future Part II) 1989.avi
Format : AVI
Format/Info : Audio Video Interleave
Format profile : OpenDML
File size : 2.18 GiB
Duration : 1h 47mn
Overall bit rate : 2 894 Kbps
Movie name : Назад в будущее 2 / Back to the Future Part II (1989) BDRip
Director : sociolog_melvas
Genre : фантастика, комедия
Writing application : VirtualDubMod 1.5.10.2 (build 2540/release)
Copyright : http://hqclub.net/
Comment : 18.07.2012
Video
ID : 0
Format : MPEG-4 Visual
Format profile : Advanced [email protected]
Format settings, BVOP : 1
Format settings, QPel : No
Format settings, GMC : No warppoints
Format settings, Matrix : Custom
Codec ID : XVID
Codec ID/Hint : XviD
Duration : 1h 47mn
Bit rate : 1 980 Kbps
Width : 704 pixels
Height : 384 pixels
Display aspect ratio : 1.85:1
Frame rate : 23.976 fps
Color space : YUV
Chroma subsampling : 4:2:0
Bit depth : 8 bits
Scan type : Progressive
Compression mode : Lossy
Bits/(Pixel*Frame) : 0.306
Stream size : 1.49 GiB (68%)
Writing library : XviD 72
Audio #1
ID : 1
Format : AC-3
Format/Info : Audio Coding 3
Mode extension : CM (complete main)
Format settings, Endianness : Big
Codec ID : 2000
Duration : 1h 47mn
Bit rate mode : Constant
Bit rate : 448 Kbps
Channel(s) : 6 channels
Channel positions : Front: L C R, Side: L R, LFE
Sampling rate : 48.0 KHz
Bit depth : 16 bits
Compression mode : Lossy
Stream size : 346 MiB (15%)
Alignment : Split accross interleaves
Interleave, duration : 42 ms (1.00 video frame)
Interleave, preload duration : 500 ms
Audio #2
ID : 2
Format : AC-3
Format/Info : Audio Coding 3
Mode extension : CM (complete main)
Format settings, Endianness : Big
Codec ID : 2000
Duration : 1h 47mn
Bit rate mode : Constant
Bit rate : 448 Kbps
Channel(s) : 6 channels
Channel positions : Front: L C R, Side: L R, LFE
Sampling rate : 48.0 KHz
Bit depth : 16 bits
Compression mode : Lossy
Stream size : 346 MiB (15%)
Alignment : Split accross interleaves
Interleave, duration : 42 ms (1.00 video frame)
Interleave, preload duration : 500 ms

Скриншот по названиям фильма

Скриншоты

Назад в будущее 3 / Back to the Future Part III 1990

Название: Назад в будущее 3
Оригинальное название: Back to the Future Part III
Год: 1990
Жанр: Приключения, фантастика, комедия
Страна: США
Режиссёр: Роберт Земекис / Robert Zemeckis
Продюссер: Нил Кэнтон, Боб Гейл / Neil Canton, Bob Gale
В ролях: Майкл Джей Фокс, Кристофер Ллойд, Мэри Стинбёрген, Томас Ф. Уилсон, Лиа Томпсон, Джеймс Толкан, Элизабет Шу-Продолжительность: 01:58:17
Перевод: Дублированный + Оригинал-Описание: Из газет 1955 года Марти узнает, что доктор Браун погиб еще сто лет назад. Несмотря на просьбы Дока не навещать его в XIX веке, Марти вновь хочет вмешаться в ход событий и на машине времени уносится в 1885 год, навстречу Дикому Западу.
Это путешествие, как и все прежние, не обходится без опасных приключений, но смелый Марти, рискуя жизнью, предотвращает трагедию в жизни Эммета Брауна. Тот, в свою очередь, без памяти влюбляется в очаровательную незнакомку, которую спасает от гибели, и поездка домой — в будущее — теряет для него всякий смысл…-Бюджет: $ 40 млн.
Сборы: $ 244 527 583-IMDB: 7.4-Качество: BDRip
Формат: AVI
Видео: 704x384 (1.83:1), 23.976 fps, XviD build 72 ~1866 kbps avg, 0.29 bit/pixel
Аудио: Dolby AC3 48000Hz 6ch 384kbps (RUS)
Аудио 2: Dolby AC3 48000Hz 6ch 384kbps (ENG)

MediaInfo

General
Complete name : D:\КИНО\фильмы\Научная Фантастика, Фэнтези\Назад в будущее. Трилогия\Назад в будущее 3 (Back to the Future Part III) 1990.avi
Format : AVI
Format/Info : Audio Video Interleave
Format profile : OpenDML
File size : 2.18 GiB
Duration : 1h 58mn
Overall bit rate : 2 642 Kbps
Movie name : Назад в будущее 3 / Back to the Future Part III (1990) BDRip
Director : sociolog_melvas
Genre : фантастика, комедия, вестерн
Writing application : VirtualDubMod 1.5.10.2 (build 2540/release)
Copyright : http://hqclub.net/
Comment : 19.07.2012
Video
ID : 0
Format : MPEG-4 Visual
Format profile : Advanced [email protected]
Format settings, BVOP : 1
Format settings, QPel : No
Format settings, GMC : No warppoints
Format settings, Matrix : Custom
Codec ID : XVID
Codec ID/Hint : XviD
Duration : 1h 58mn
Bit rate : 1 856 Kbps
Width : 704 pixels
Height : 384 pixels
Display aspect ratio : 1.85:1
Frame rate : 23.976 fps
Color space : YUV
Chroma subsampling : 4:2:0
Bit depth : 8 bits
Scan type : Progressive
Compression mode : Lossy
Bits/(Pixel*Frame) : 0.286
Stream size : 1.53 GiB (70%)
Writing library : XviD 72
Audio #1
ID : 1
Format : AC-3
Format/Info : Audio Coding 3
Mode extension : CM (complete main)
Format settings, Endianness : Big
Codec ID : 2000
Duration : 1h 58mn
Bit rate mode : Constant
Bit rate : 384 Kbps
Channel(s) : 6 channels
Channel positions : Front: L C R, Side: L R, LFE
Sampling rate : 48.0 KHz
Bit depth : 16 bits
Compression mode : Lossy
Stream size : 325 MiB (15%)
Alignment : Split accross interleaves
Interleave, duration : 42 ms (1.00 video frame)
Interleave, preload duration : 500 ms
Audio #2
ID : 2
Format : AC-3
Format/Info : Audio Coding 3
Mode extension : CM (complete main)
Format settings, Endianness : Big
Codec ID : 2000
Duration : 1h 58mn
Bit rate mode : Constant
Bit rate : 384 Kbps
Channel(s) : 6 channels
Channel positions : Front: L C R, Side: L R, LFE
Sampling rate : 48.0 KHz
Bit depth : 16 bits
Compression mode : Lossy
Stream size : 325 MiB (15%)
Alignment : Split accross interleaves
Interleave, duration : 42 ms (1.00 video frame)
Interleave, preload duration : 500 ms

Скриншот по названиям фильма

Скриншоты

[mytorrents.biz].t679931.torrent
 GOLD TORRENT! DOWNLOAD TRAFFIC DOES NOT CONSIDER! 
Вечный
Torrent: Registered [ 2020-04-14 17:00 ] · E0D6C655965E6F0B7D25F93E90AD4A1A5B987500

Download .torrent

Download


Помочь трекеру

Status: checked
Size: 6.55 GB   (Completed: 0 times)
Rate: 
(Vote: 2)
Has thanked: 3  Thanks   (List)
Золото/Серебро:

Инструкция
Похожие темы

tomas

Gender: Male

Longevity: 7 years 5 months

Posts: 1796

Репутация: 195 [+]

Наличие запрета:

[Profile] [PM]

Post 14-Apr-2020 18:34 (after 1 hour 34 minutes)

[Quote]

FHDL, заполнять нужно по Шаблону.
Шапку нужно заполнить так:
Название на русском / название на английском оригинальное название (Режиссер.) [Год., Жанр, Качество]
А у Вас в Шапке только:
Название на русском / название на английском оригинальное название
Допишите остальное. Иначе не проверят.

xonbek2012

Gender: Unknown

Longevity: 2 years 7 months

Posts: 6

Репутация: 1 [+]

Наличие запрета:

[Profile] [PM]

Post 14-Apr-2020 20:49 (after 2 hours 14 minutes)

[Quote]

мой любимый фильм детства

RED

Gender: Male

Longevity: 8 years 4 months

Posts: 3029

Location: с параллельной реальности

Репутация: 13082 [+]

Наличие запрета:

[Profile] [PM]

Post 16-Apr-2020 13:26 (after 1 day 16 hours)

[Quote]

фильм ваще огонь шедевр
Display posts:    
Reply to topic

Current time is: 18-Jun 22:52

All times are UTC + 5



You cannot post new topics in this forum
You cannot reply to topics in this forum
You cannot edit your posts in this forum
You cannot delete your posts in this forum
You cannot vote in polls in this forum
You cannot attach files in this forum
You cannot download files in this forum