Скачать Разрабы / Devs / Сезон: 1 / Серии: 1-8 из 8 (Алекс Гарленд) [2020, фантастика, триллер, драма, детектив, WEB-DL 1080p] HDrezka Studio в Тас-икс (Tas-ix)

DL-List and Torrent activity
Size:  13.31 GB   |    Registered:  1 year 1 month   |    Completed:  12 times

Seeder not seen: 7 months 6 days

 
 
 
 
Author Message

Ravilya ®

Gender: Female

Longevity: 2 years 2 months

Posts: 916

Репутация: 321 [+]

Наличие запрета:

[Profile] [PM]

Post 17-Apr-2020 23:18

[Quote]

Разрабы / Devs
Год выпуска: 2020
Страна: США
Жанр: фантастика, триллер, драма, детектив
Продолжительность: 8 х ~ 00:50:00
Перевод: Профессиональный (многоголосый) [HDrezka Studio]
Cубтитры: Russian, English | srt
Режиссер: Алекс Гарленд
В ролях: Соноя Мидзуно, Ник Офферман, Зэк Гренье, Кэйли Спэни, Стивен Хендерсон, Элисон Пилл, Джефферсон Холл, Карл Глусман
Описание: Главная героиня — компьютерный инженер Лили Чан. Она работает в передовой технологической компании Amaya, расположенной в Сан-Франциско, и подозревает, что руководство фирмы виновно в смерти её парня. В попытке найти следы преступления она натыкается на секретное подразделение, которым заведует загадочный Форест.


Качество видео: WEB-DL 1080p
Формат видео: MKV
Видео: 4500 Kb/s, 1920x1080
Аудио №1: Russian: AAC, 192 Kb/s (2 ch)
Аудио №2: English: MP3, 128 Kb/s (2 ch)

MI

Общее
Уникальный идентификатор: 90800063659517267984553668760477749659 (0x444F74C699E566C4C2BC76ED95C1D19B)
Полное имя: \ Devs.S01.WEB-DL (1080p) .RusEng \ Devs.S01E01.WEB-DL (1080p) .RusEng.HDRezka.mkv
Формат: Матроска
Версия формата: Версия 4
Размер файла: 1,94 Гбайт
Продолжительность: 56 м. 44 с.
Режим общего битрейта: Переменный
Общий поток: 4 893 Кбит / сек
Название фильма: Devs (Разрабы) Сезон 1 Эпизод 1
Дата кодирования: UTC 2020-04-10 01:20:41
Программа кодирования: mkvmerge v45.0.0 ('Heaven in Pennies') 64-битная
Библиотека кодирования: libebml v1.3.10 + libmatroska v1.5.2
Видео
Идентификатор: 1
Формат: AVC
Формат / Информация: Расширенный видеокодек
Профиль формата: High @ L4
Настройки формата: CABAC / 4 Ref Frames
Параметр CABAC формата: Да
Параметр RefFrames формата: 4 кадра
Идентификатор кодека: V_MPEG4 / ISO / AVC
Продолжительность: 56 м. 44 с.
Битрейт: 4 600 Кбит / сек
Ширина: 1 920 пикселей
Высота: 1 080 пикселей
Соотношение сторон: 16: 9
Режим частоты кадров: Постоянный
Частота кадров: 25 000 кадров / сек
Цветовое пространство: YUV
Субдискретизация насыщенности: 4: 2: 0
Битовая глубина: 8 бит
Тип развёртки: Прогрессивная
Бит / (Пиксели * Кадры): 0,089
Размер потока: 1,81 Гбайт (93%)
Библиотека кодирования: x264 core 155
Настройки программы: cabac = 1 / ref = 2 / deblock = 1: 0: 0 / анализ = 0x3: 0x113 / me = hex / subme = 4 / psy = 1 / psy_rd = 1,00: 0,00 / mixed_ref = 0 / me_range = 16 / chroma_me = 1 / решетчатая = 1 / 8x8dct = 1 / cqm = 0 / мертвая зона = 21,11 / fast_pskip = 1 / chroma_qp_offset = 0 / threads = 12 / lookahead_threads = 3 / sliced_threads = 0 / nr = 0 / decimate = 1 / interlaced = 0 / bluray_compat = 0 / constrained_intra = 0 / bframes = 3 / b_pyramid = 2 / b_adapt = 1 / b_bias = 0 / direct = 1 / weightb = 1 / open_gop = 0 / weightp = 1 / keyint = 250 / keyint_min = 25 / scenecut = 40 / intra_refresh = 0 / rc_lookahead = 20 / rc = abr / mbtree = 1 / битрейт = 4600 / ratetol = 1,0 / qcomp = 0,60 / qpmin = 0 / qpmax = 69 / qpstep = 4 / ip_ratio = 1,40 / aq = 1: 1,00
По умолчанию: Да
Принудительно: Нет
Цветовой диапазон: ограниченный
Характеристики трансфера: BT.709
Приближенные матрицы: BT.709
Аудио # 1
Идентификатор: 2
Формат: AAC LC
Формат / Информация: Усовершенствованный аудиокодек с низкой сложностью
Идентификатор кодека: A_AAC-2
Продолжительность: 56 м. 44 с.
Битрейт: 192 Кбит / сек
Каналы: 2 канала
Макет канала: LR
Частота: 48,0 КГц
Частота кадров: 46,875 кадров / сек (1024 SPF)
Метод сжатия: С потерями
Размер потока: 78,0 Мбайт (4%)
Заголовок: Русский
Язык: русский
По умолчанию: Да
Принудительно: Нет
Аудио # 2
Идентификатор: 3
Формат: MPEG Audio
Версия формата: Версия 1
Профиль формата: Слой 3
Настройки формата: Joint Stereo / MS Stereo
Идентификатор кодека: A_MPEG / L3
Идентификатор кодека / Подсказка: MP3
Продолжительность: 56 м. 41 с.
Вид битрейта: Переменный
Битрейт: 128 Кбит / сек
Каналы: 2 канала
Частота: 48,0 КГц
Частота кадров: 41 667 кадров / сек (1152 SPF)
Метод сжатия: С потерями
Размер потока: 51,9 Мбайт (3%)
Заголовок: английский
Язык: английский
По умолчанию: Нет
Принудительно: Нет
[mytorrents.biz].t679956.torrent
Torrent: Registered [ 2020-04-17 23:18 ] · 385FA061C758FCDE3886B84EC42AE99179F8377C

Download .torrent

Download


Помочь трекеру

Status: checked
Size: 13.31 GB   (Completed: 12 times)
Rate: 
(Vote: 1)
Has thanked: 2  Thanks   (List)
Золото/Серебро:

Инструкция
Похожие темы
Display posts:    
Reply to topic

Current time is: 13-Jun 16:22

All times are UTC + 5



You cannot post new topics in this forum
You cannot reply to topics in this forum
You cannot edit your posts in this forum
You cannot delete your posts in this forum
You cannot vote in polls in this forum
You cannot attach files in this forum
You cannot download files in this forum