Скачать Академия монстров / Escuela de Miedo / Cranston Academy: Monster Zone (Леопольдо Сеа Агилар / Leopoldo Zea Aguilar) [2020, Мультфильм, семейный, приключения, BDRip 1080p] (Dub) (Sub Rus + Original Eng) в Тас-икс (Tas-ix)

DL-List and Torrent activity
Size:  5.85 GB   |    Registered:  5 months 2 days   |    Completed:  0 times

Seeder not seen: 3 months 7 days

 
 
 
 
Author Message

Эль ®

Gender: Male

Longevity: 9 years

Posts: 670

Location: Далёкой галактики г. Наманган

Репутация: 1729 [+]

Наличие запрета:

[Profile] [PM]

Post 20-Jan-2021 16:59

[Quote]

Академия монстров / Escuela de Miedo / Cranston Academy: Monster Zone
Год выпуска: 2020
Страна: Мексика / Anima Estudios, ReDefine
Жанр: Мультфильм, семейный, приключения
Продолжительность: 01:25:15
Перевод: Профессиональный (дублированный)
Cубтитры: английские
Оригинальная аудиодорожка: английский
Режиссер: Леопольдо Сеа Агилар / Leopoldo Zea Aguilar
В ролях: Джейми Белл, Джейссолит, Руби Роуз
Описание: Школьнику Дэнни живется несладко: он не может подружиться с одноклассниками и не находит общего языка с преподавателями. И всему виной его гениальность. Но однажды он попадает в школу для одаренных детей, где случайно открывает портал в мир... монстров.
Качество видео: BDRip 1080p
Формат видео: MKV
Видео: AVC/H.264, 1920x824, ~8814 Kbps
Аудио1: AC3, 6 ch, 384 Kbps - Русский (iTunes)
Аудио2: AC3, 6 ch, 640 Kbps - Английский

MediaInfo

General
Unique ID : 290376446526565218586415118988289443581 (0xDA747827638FB3EC8D1328C680AB06FD)
Complete name : D:\Cranston.Academy.Monster.Zone.2020.BDRip.1080p.seleZen.mkv
Format : Matroska
Format version : Version 4
File size : 5.85 GiB
Duration : 1 h 25 min
Overall bit rate : 9 840 kb/s
Movie name : Cranston Academy Monster Zone 2020 from seleZen
Encoded date : UTC 2021-01-14 01:44:07
Writing application : mkvmerge v40.0.0 ('Old Town Road + Pony') 64-bit
Writing library : libebml v1.3.9 + libmatroska v1.5.2
Video
ID : 1
Format : AVC
Format/Info : Advanced Video Codec
Format profile : [email protected]
Format settings : CABAC / 5 Ref Frames
Format settings, CABAC : Yes
Format settings, Reference fra : 5 frames
Codec ID : V_MPEG4/ISO/AVC
Duration : 1 h 25 min
Bit rate : 8 814 kb/s
Width : 1 920 pixels
Height : 824 pixels
Display aspect ratio : 2.35:1
Frame rate mode : Constant
Frame rate : 23.976 (24000/1001) FPS
Color space : YUV
Chroma subsampling : 4:2:0
Bit depth : 8 bits
Scan type : Progressive
Bits/(Pixel*Frame) : 0.232
Stream size : 5.24 GiB (90%)
Title : iFT
Writing library : x264 core 161 r3018+53 ~ Encoded by Mocunaman in Portugal
Encoding settings : cabac=1 / ref=5 / deblock=1:-3:-3 / analyse=0x3:0x113 / me=umh / subme=11 / psy=1 / fade_compensate=0.00 / psy_rd=0.80:0.00 / mixed_ref=1 / me_range=32 / chroma_me=1 / trellis=2 / 8x8dct=1 / cqm=0 / deadzone=21,11 / fast_pskip=0 / chroma_qp_offset=-2 / threads=26 / lookahead_threads=4 / sliced_threads=0 / nr=0 / decimate=0 / interlaced=0 / bluray_compat=0 / constrained_intra=0 / fgo=0 / bframes=8 / b_pyramid=2 / b_adapt=2 / b_bias=0 / direct=3 / weightb=1 / open_gop=0 / weightp=2 / keyint=250 / keyint_min=23 / scenecut=40 / intra_refresh=0 / rc_lookahead=60 / rc=crf / mbtree=0 / crf=16.8000 / qcomp=0.60 / qpmin=0:0:0 / qpmax=69:69:69 / qpstep=4 / vbv_maxrate=62500 / vbv_bufsize=78125 / crf_max=0.0 / nal_hrd=none / filler=0 / ip_ratio=1.30 / pb_ratio=1.20 / aq=3:0.90 / aq-sensitivity=10.00 / aq-factor=1.00:1.00:1.00 / aq2=0 / aq3=0 / zones=288,552,crf=13.8/809,1189,crf=13.8/1568,2991,crf=14.8/3454,4138,crf=14.8/4832,5442,crf=15.8/6193,6228,crf=15.8/64199,81245,crf=15.8
Language : English
Default : Yes
Forced : No
Color range : Limited
Color primaries : BT.709
Transfer characteristics : BT.709
Matrix coefficients : BT.709
Audio #1
ID : 2
Format : AC-3
Format/Info : Audio Coding 3
Commercial name : Dolby Digital
Codec ID : A_AC3
Duration : 1 h 25 min
Bit rate mode : Constant
Bit rate : 384 kb/s
Channel(s) : 6 channels
Channel layout : L R C LFE Ls Rs
Sampling rate : 48.0 kHz
Frame rate : 31.250 FPS (1536 SPF)
Compression mode : Lossy
Stream size : 234 MiB (4%)
Title : iTunes
Language : Russian
Service kind : Complete Main
Default : Yes
Forced : Yes
Audio #2
ID : 3
Format : AC-3
Format/Info : Audio Coding 3
Commercial name : Dolby Digital
Codec ID : A_AC3
Duration : 1 h 25 min
Bit rate mode : Constant
Bit rate : 640 kb/s
Channel(s) : 6 channels
Channel layout : L R C LFE Ls Rs
Sampling rate : 48.0 kHz
Frame rate : 31.250 FPS (1536 SPF)
Compression mode : Lossy
Stream size : 390 MiB (7%)
Title : Original
Language : English
Service kind : Complete Main
Default : No
Forced : No
Text
ID : 4
Format : UTF-8
Codec ID : S_TEXT/UTF8
Codec ID/Info : UTF-8 Plain Text
Duration : 1 h 17 min
Bit rate : 55 b/s
Count of elements : 1124
Stream size : 31.4 KiB (0%)
Title : Full
Language : English
Default : No
Forced : No
Menu
00:00:00.000 : en:Kapitel 01
00:08:09.113 : en:Kapitel 02
00:15:20.377 : en:Kapitel 03
00:21:33.208 : en:Kapitel 04
00:30:08.348 : en:Kapitel 05
00:38:57.043 : en:Kapitel 06
00:44:04.016 : en:Kapitel 07
00:49:49.861 : en:Kapitel 08
00:55:30.660 : en:Kapitel 09
01:01:16.297 : en:Kapitel 10
01:09:28.831 : en:Kapitel 11
01:18:43.552 : en:Kapitel 12

Скриншоты

[mytorrents.biz].t681133.torrent
 GOLD TORRENT! DOWNLOAD TRAFFIC DOES NOT CONSIDER! 
Осталось: [ 20-Jan-2022 17:53 ]
Torrent: Registered [ 2021-01-20 16:59 ] · 98D8466C4977FBD520A9396E006766022BB896D7

Download .torrent

Download


Помочь трекеру

Status: checked
Size: 5.85 GB   (Completed: 0 times)
Rate: 
(Vote: 1)
Has thanked: 1  Thanks   (List)
Золото/Серебро:

Инструкция
Похожие темы
Display posts:    
Reply to topic

Current time is: 22-Jun 19:17

All times are UTC + 5



You cannot post new topics in this forum
You cannot reply to topics in this forum
You cannot edit your posts in this forum
You cannot delete your posts in this forum
You cannot vote in polls in this forum
You cannot attach files in this forum
You cannot download files in this forum