Скачать Доктор Стрэндж / Doctor Strange (Скотт Дерриксон / Scott Derrickson) [2016, Фантастика, фэнтези, боевик, приключения, Hybrid] (Dub) (Sub Rus + Original Eng) [Open Matte] в Тас-икс (Tas-ix)

DL-List and Torrent activity
Size:  16.07 GB   |    Registered:  4 months 22 days   |    Completed:  0 times

Seeder not seen: 4 months 5 days

 
 
 
 
Author Message

Эль ®

Gender: Male

Longevity: 9 years 10 months

Posts: 670

Location: Далёкой галактики г. Наманган

Репутация: 1729 [+]

Наличие запрета:

[Profile] [PM]

Post 22-Jan-2021 23:53

[Quote]

Доктор Стрэндж / Doctor Strange
Год выпуска: 2016
Страна: США / Marvel Studios, Walt Disney Pictures
Жанр: Фантастика, фэнтези, боевик, приключения
Продолжительность: 01:55:12
Перевод: Профессиональный (дублированный)
Cубтитры: русские
Оригинальная аудиодорожка: английский
Режиссер: Скотт Дерриксон / Scott Derrickson
В ролях: Бенедикт Камбербэтч, Тильда Суинтон, Мадс Миккельсен, Чиветель Эджиофор, Рэйчел МакАдамс, Бенедикт Вонг, Майкл Стулбарг, Бенджамин Брэтт, Скотт Эдкинс, Зара Питиан
Описание: Страшная автокатастрофа поставила крест на карьере успешного нейрохирурга Доктора Стрэнджа. Отчаявшись, он отправляется в путешествие в поисках исцеления и открывает в себе невероятные способности к трансформации пространства и времени. Теперь он - связующее звено между параллельными измерениями, а его миссия - защищать жителей Земли и противодействовать Злу, какое бы обличие оно ни принимало.
Качество видео: Hybrid
Формат видео: MKV
Видео: AVC/H.264, 1920x1080, ~19.1 mbps
Аудио1: AC3, 6 ch, 640 kbps, Русский (DUB, Невафильм / BluRay)
Аудио2: AC3, 2 ch, 192 kbps, Английский (Commentary by director and writer Scott Derrickson)

Дополнительная информация:

Гибрид получен путем автоматического совмещения WEB-DL Open Matte и широкоэкранного BD EUR с помощью AutoOverlay AviSynth plugin.

MediaInfo

General
Unique ID : 69767874035131334924348822936721660612 (0x347CCDC44466698B4745B7271D7D9AC4)
Complete name : D:\Doctor.Strange.2016.Open.Matte.1080p.Hybrid.7xRus.Ukr.2xEng.TeamHD (1).mkv
Format : Matroska
Format version : Version 4
File size : 16.1 GiB
Duration : 1 h 55 min
Overall bit rate : 20.0 Mb/s
Movie name : Doctor.Strange.2016.Open.Matte.1080p.Hybrid.7xRus.Ukr.2xEng.TeamHD
Encoded date : UTC 2021-01-22 01:29:53
Writing application : mkvmerge v52.0.0 ('Secret For The Mad') 32-bit
Writing library : libebml v1.4.1 + libmatroska v1.6.2
Video
ID : 1
Format : AVC
Format/Info : Advanced Video Codec
Format profile : [email protected]
Format settings : CABAC / 5 Ref Frames
Format settings, CABAC : Yes
Format settings, Reference fra : 5 frames
Codec ID : V_MPEG4/ISO/AVC
Duration : 1 h 55 min
Bit rate : 19.1 Mb/s
Width : 1 920 pixels
Height : 1 080 pixels
Display aspect ratio : 16:9
Frame rate mode : Constant
Frame rate : 23.976 (24000/1001) FPS
Color space : YUV
Chroma subsampling : 4:2:0
Bit depth : 8 bits
Scan type : Progressive
Bits/(Pixel*Frame) : 0.385
Stream size : 15.4 GiB (96%)
Title : Hybrid 1080p (Rip by SOFCJ)
Writing library : x264 core 157 r2970+47 cae74a0 t_mod_New [[email protected] X86_64]
Encoding settings : cabac=1 / ref=5 / deblock=1:-3:-3 / analyse=0x3:0x133 / me=umh / subme=11 / psy=1 / fade_compensate=0.00 / psy_rd=1.00:0.00 / mixed_ref=1 / me_range=64 / chroma_me=1 / trellis=2 / 8x8dct=1 / cqm=0 / deadzone=21,11 / fast_pskip=0 / chroma_qp_offset=-2 / threads=12 / lookahead_threads=2 / sliced_threads=0 / nr=0 / decimate=0 / interlaced=0 / bluray_compat=0 / constrained_intra=0 / fgo=0 / bframes=8 / b_pyramid=2 / b_adapt=2 / b_bias=0 / direct=3 / weightb=1 / open_gop=0 / weightp=2 / keyint=230 / keyint_min=23 / scenecut=40 / intra_refresh=0 / rc_lookahead=60 / rc=crf / mbtree=1 / crf=16.5000 / qcomp=0.60 / qpmin=0:0:0 / qpmax=69:69:69 / qpstep=4 / vbv_maxrate=62500 / vbv_bufsize=78125 / crf_max=0.0 / nal_hrd=none / filler=0 / ip_ratio=1.40 / aq=1:1.00 / aq-sensitivity=10.00 / aq-factor=1.00:1.00:1.00 / aq2=0 / aq3=0
Language : English
Default : Yes
Forced : No
Color range : Limited
Color primaries : BT.709
Transfer characteristics : BT.709
Matrix coefficients : BT.709
Audio #1
ID : 2
Format : AC-3
Format/Info : Audio Coding 3
Commercial name : Dolby Digital
Codec ID : A_AC3
Duration : 1 h 54 min
Bit rate mode : Constant
Bit rate : 640 kb/s
Channel(s) : 6 channels
Channel layout : L R C LFE Ls Rs
Sampling rate : 48.0 kHz
Frame rate : 31.250 FPS (1536 SPF)
Compression mode : Lossy
Stream size : 526 MiB (3%)
Title : Дубляж - Невафильм / BluRay
Language : Russian
Service kind : Complete Main
Default : Yes
Forced : No
Audio #2
ID : 3
Format : AC-3
Format/Info : Audio Coding 3
Commercial name : Dolby Digital
Codec ID : A_AC3
Duration : 1 h 54 min
Bit rate mode : Constant
Bit rate : 192 kb/s
Channel(s) : 2 channels
Channel layout : L R
Sampling rate : 48.0 kHz
Frame rate : 31.250 FPS (1536 SPF)
Compression mode : Lossy
Stream size : 158 MiB (1%)
Title : Commentary by director and writer Scott Derrickson
Language : English
Service kind : Complete Main
Default : No
Forced : No
Text #1
ID : 4
Format : UTF-8
Codec ID : S_TEXT/UTF8
Codec ID/Info : UTF-8 Plain Text
Duration : 3 min 1 s
Bit rate : 5 b/s
Count of elements : 4
Stream size : 131 Bytes (0%)
Title : Captions - BluRay
Language : Russian
Default : Yes
Forced : No
Text #2
ID : 5
Format : UTF-8
Codec ID : S_TEXT/UTF8
Codec ID/Info : UTF-8 Plain Text
Duration : 1 h 52 min
Bit rate : 73 b/s
Count of elements : 1286
Stream size : 60.4 KiB (0%)
Title : Full - BluRay
Language : Russian
Default : No
Forced : No
Text #3
ID : 6
Format : UTF-8
Codec ID : S_TEXT/UTF8
Codec ID/Info : UTF-8 Plain Text
Duration : 1 h 54 min
Bit rate : 162 b/s
Count of elements : 1949
Stream size : 137 KiB (0%)
Title : Commentary by director and writer Scott Derrickson
Language : Russian
Default : No
Forced : No
Text #4
ID : 7
Format : UTF-8
Codec ID : S_TEXT/UTF8
Codec ID/Info : UTF-8 Plain Text
Duration : 1 h 35 min
Bit rate : 0 b/s
Count of elements : 7
Stream size : 338 Bytes (0%)
Title : Captions
Language : Ukrainian
Default : No
Forced : No
Text #5
ID : 8
Format : UTF-8
Codec ID : S_TEXT/UTF8
Codec ID/Info : UTF-8 Plain Text
Duration : 1 h 52 min
Bit rate : 43 b/s
Count of elements : 1319
Stream size : 36.1 KiB (0%)
Title : Full - BluRay
Language : English
Default : No
Forced : No
Text #6
ID : 9
Format : UTF-8
Codec ID : S_TEXT/UTF8
Codec ID/Info : UTF-8 Plain Text
Duration : 1 h 54 min
Bit rate : 49 b/s
Count of elements : 1584
Stream size : 41.3 KiB (0%)
Title : Full, SDH
Language : English
Default : No
Forced : No
Text #7
ID : 10
Format : UTF-8
Codec ID : S_TEXT/UTF8
Codec ID/Info : UTF-8 Plain Text
Duration : 1 h 54 min
Bit rate : 118 b/s
Count of elements : 1967
Stream size : 99.1 KiB (0%)
Title : Commentary by director and writer Scott Derrickson
Language : English
Default : No
Forced : No
Menu
00:00:00.000 : en:Prologue
00:04:34.566 : en:The Good Doctor
00:10:16.825 : en:Medicine And Mania
00:18:32.153 : en:Kamar-Taj
00:24:37.017 : en:Open Your Eye
00:31:40.482 : en:The Mystic Arts
00:38:33.811 : en:Surrender
00:43:16.135 : en:Infinite Dangers
00:48:24.527 : en:Eye of Agamotto
00:55:34.498 : en:Sanctum Siege
01:05:04.359 : en:Astral Battle
01:12:38.437 : en:Manhattan Mirror Dimension
01:22:14.346 : en:It's Not About You
01:28:28.637 : en:Defending Hong Kong
01:35:00.904 : en:The Dark Dimension
01:45:06.509 : en:End Credits

Скриншоты

[mytorrents.biz].t681146.torrent
Torrent: Registered [ 2021-01-22 23:53 ] · A08D15F9C71275320E34A05A42C0B4EA76C331B1

Download .torrent

Download


Помочь трекеру

Status: checked
Size: 16.07 GB   (Completed: 0 times)
Rate: 
(Vote: 1)
Has thanked: 1  Thanks   (List)
Золото/Серебро:

Инструкция
Похожие темы
Display posts:    
Reply to topic

Current time is: 14-Jun 02:03

All times are UTC + 5



You cannot post new topics in this forum
You cannot reply to topics in this forum
You cannot edit your posts in this forum
You cannot delete your posts in this forum
You cannot vote in polls in this forum
You cannot attach files in this forum
You cannot download files in this forum