Скачать Том и Джерри / Tom and Jerry (2021) WEB-DL-HEVC 2160p | 4K | Dolby Vision | iTunes в Тас-икс (Tas-ix)

DL-List and Torrent activity
Size:  13.34 GB   |    Registered:  1 month 17 days   |    Completed:  2 times
Seeders:  1  [  0 KB/s  ]   Show peers in full details
 
 
 
 
Author Message

holnazarov ®

Gender: Male

Longevity: 9 years 1 month

Posts: 242

Location: от туда mytorrents.biz

Репутация: 2301 [+]

Наличие запрета:

[Profile] [PM]

Post 26-Apr-2021 17:10

[Quote]

Том и Джерри / Tom and Jerry- -Год выпуска: 2021
Страна: Великобритания, Франция, Германия, США.
Жанр: Комедия, приключения, семейный, мультфильм
Продолжительность: 01:41:02
Перевод: Дублированный [iTunes]
Cубтитры: русские(forced,полные), английские
Режиссер: Тим Стори
В ролях: Хлоя Грейс Морец, Майкл Пенья, Роб Делани, Том, Джерри, Джордан Болджер, Пэтси Ферран, Паллави Шарда, Колин Жост, Соми Гуха, Аджай Чабра, Патрик Полетти, Дженис Ахерн, Камилла Арведсон, Кен Жонг, Джо Боун, Брайан Бовелл
Описание: Кайла, работница престижного отеля, где обитает мышонок Джерри, рискующий нарушить ход дорогой свадьбы, нанимает уличного кота Тома, чтобы разобраться с наглым грызуном. Но решить эту проблему не так-то просто.
Качество видео: WebDL 2160p
Формат видео: MP4
Видео: HEVC, Dolby Vision Profile 5, 17.9 Mбит/с, 3840x2160, 23.976 кадр/с
Аудио: #1 Русский: AC3, 48.0 kHz, 6 ch, 384 kb/s | [Дублированный [iTunes]
Аудио: #2 English: AC3, 5.1, 640 Kbps| [Дублированный [iTunes]

Скриншоты

Невозможно получить скрины с нормальными цветами с компьютера, так как нет плееров которые бы смогли прочитать правильно слой DV если нет в нём еще и HDR.



Mediainfo

Общее
Полное имя : D:Download TorrentsTom.and.Jerry.2021.WEB-DL.2160p.Dolby_Vision.P5.by.DVT.mp4
Формат : MPEG-4
Профиль формата : Base Media
Идентификатор кодека : isom (isom)
Размер файла : 13,3 Гбайт
Продолжительность : 1 ч. 41 м.
Режим общего битрейта : Переменный
Общий поток : 18,9 Мбит/сек
Дата кодирования : UTC 2021-03-27 19:37:24
Дата пометки : UTC 2021-03-27 19:37:24
Видео
Идентификатор : 1
Формат : HEVC
Формат/Информация : High Efficiency Video Coding
Профиль формата : Main [email protected]@Main
HDR format : Dolby Vision, Version 1.0, dvhe.05.06, BL+RPU
Идентификатор кодека : dvhe
Идентификатор кодека/Информация : High Efficiency Video Coding with Dolby Vision
Продолжительность : 1 ч. 41 м.
Битрейт : 17,9 Мбит/сек
Ширина : 3 840 пикселей
Высота : 2 160 пикселей
Соотношение сторон : 16:9
Режим частоты кадров : Постоянный
Частота кадров : 23,976 (24000/1001) кадра/сек
Цветовое пространство : YUV
Субдискретизация насыщенности : 4:2:0
Битовая глубина : 10 бит
Бит/(Пиксели*Кадры) : 0.090
Размер потока : 12,6 Гбайт (95%)
Заголовок : Tom and Jerry (2021) - Release by Dolby Vision Torrents
Библиотека кодирования : x265 3.4hy:[Linux][GCC 7.5.0][64 bit] 10bit
Настройки программы : cpuid=1111039 / frame-threads=1 / wpp / no-pmode / no-pme / no-psnr / no-ssim / log-level=2 / input-csp=1 / input-res=3840x2160 / interlace=0 / total-frames=0 / level-idc=0 / high-tier=1 / uhd-bd=0 / ref=4 / no-allow-non-conformance / repeat-headers / annexb / aud / hrd / info / hash=0 / no-temporal-layers / no-open-gop / min-keyint=96 / keyint=96 / gop-lookahead=0 / bframes=4 / b-adapt=2 / b-pyramid / bframe-bias=0 / rc-lookahead=48 / lookahead-slices=4 / scenecut=40 / hist-scenecut=0 / radl=0 / no-splice / no-intra-refresh / ctu=64 / min-cu-size=8 / rect / no-amp / max-tu-size=32 / tu-inter-depth=1 / tu-intra-depth=1 / limit-tu=0 / rdoq-level=2 / dynamic-rd=0.00 / no-ssim-rd / signhide / no-tskip / nr-intra=0 / nr-inter=0 / no-constrained-intra / strong-intra-smoothing / max-merge=3 / limit-refs=3 / limit-modes / me=3 / subme=3 / merange=57 / temporal-mvp / no-frame-dup / no-hme / weightp / no-weightb / no-analyze-src-pics / deblock=0:0 / sao / no-sao-non-deblock / rd=4 / selective-sao=4 / no-early-skip / rskip / no-fast-intra / no-tskip-fast / no-cu-lossless / no-b-intra / no-splitrd-skip / rdpenalty=0 / psy-rd=2.00 / psy-rdoq=1.00 / no-rd-refine / no-lossless / cbqpoffs=0 / crqpoffs=3 / rc=abr / bitrate=18000 / qcomp=0.60 / qpstep=4 / stats-write=0 / stats-read=2 / cplxblur=20.0 / qblur=0.5 / vbv-maxrate=24500 / vbv-bufsize=24500 / vbv-init=0.6 / vbv-end=0.6 / vbv-end-fr-adj=0.0 / ipratio=1.40 / pbratio=1.30 / aq-mode=2 / aq-strength=1.00 / cutree / zone-count=0 / no-strict-cbr / qg-size=32 / no-rc-grain / qpmax=69 / qpmin=0 / no-const-vbv / sar=1 / overscan=0 / videoformat=5 / range=1 / colorprim=2 / transfer=2 / colormatrix=2 / chromaloc=0 / display-window=0 / cll=0,0 / min-luma=0 / max-luma=1023 / log2-max-poc-lsb=8 / vui-timing-info / vui-hrd-info / no-concatenation / slices=1 / no-opt-qp-pps / no-opt-ref-list-length-pps / no-multi-pass-opt-rps / scenecut-bias=0.05 / hist-threshold=0.01 / no-opt-cu-delta-qp / no-aq-motion / no-hdr10 / no-hdr10-opt / no-dhdr10-opt / no-idr-recovery-sei / analysis-reuse-level=0 / analysis-save-reuse-level=0 / analysis-load-reuse-level=0 / scale-factor=0 / refine-intra=0 / refine-inter=0 / refine-mv=1 / refine-ctu-distortion=0 / no-limit-sao / ctu-info=0 / no-lowpass-dct / refine-analysis-type=0 / copy-pic=1 / max-ausize-factor=1.0 / no-dynamic-refine / no-single-sei / no-hevc-aq / no-svt / no-field / qp-adaptation-range=1.00 / no-scenecut-aware-qpconformance-window-offsets / right=0 / bottom=0 / decoder-max-rate=0
Язык : English
Default : Нет
Дата кодирования : UTC 2021-03-27 19:17:48
Дата пометки : UTC 2021-03-27 19:39:31
Цветовой диапазон : Full
Codec configuration box : hvcC+dvcC
Аудио #1
Идентификатор : 2
Формат : AC-3
Формат/Информация : Audio Coding 3
Коммерческое название : Dolby Digital
Идентификатор кодека : ac-3
Продолжительность : 1 ч. 41 м.
Вид битрейта : Постоянный
Битрейт : 384 Кбит/сек
Максимальный битрейт : 406 Кбит/сек
Каналы : 6 каналов
Channel layout : L R C LFE Ls Rs
Частота : 48,0 КГц
Частота кадров : 31,250 кадров/сек (1536 SPF)
Метод сжатия : С потерями
Размер потока : 278 Мбайт (2%)
Заголовок : Russian Dub 5.1 ch
Язык : Russian
Service kind : Complete Main
Дата кодирования : UTC 2021-03-27 19:39:21
Дата пометки : UTC 2021-03-27 19:39:31
Аудио #2
Идентификатор : 3
Формат : AC-3
Формат/Информация : Audio Coding 3
Коммерческое название : Dolby Digital
Идентификатор кодека : ac-3
Продолжительность : 1 ч. 41 м.
Вид битрейта : Постоянный
Битрейт : 640 Кбит/сек
Максимальный битрейт : 676 Кбит/сек
Каналы : 6 каналов
Channel layout : L R C LFE Ls Rs
Частота : 48,0 КГц
Частота кадров : 31,250 кадров/сек (1536 SPF)
Метод сжатия : С потерями
Размер потока : 463 Мбайт (3%)
Заголовок : Original 5.1 ch
Язык : English
Service kind : Complete Main
Default : Нет
Дата кодирования : UTC 2021-03-27 19:39:25
Дата пометки : UTC 2021-03-27 19:39:31
Текст #1
Идентификатор : 4
Формат : Timed Text
Идентификатор кодека : tx3g
Продолжительность : 1 ч. 38 м.
Вид битрейта : Переменный
Битрейт : 6 бит/сек
Размер потока : 4,60 Кбайт (0%)
Заголовок : Forced
Язык : Russian
Forced : Да
Дата кодирования : UTC 2021-03-27 19:39:30
Дата пометки : UTC 2021-03-27 19:39:31
Текст #2
Идентификатор : 5
Формат : Timed Text
Идентификатор кодека : tx3g
Продолжительность : 1 ч. 40 м.
Вид битрейта : Переменный
Битрейт : 113 бит/сек
Размер потока : 83,6 Кбайт (0%)
Заголовок : Full
Язык : Russian
Forced : Нет
Дата кодирования : UTC 2021-03-27 19:39:30
Дата пометки : UTC 2021-03-27 19:39:31
Текст #3
Идентификатор : 6
Формат : Timed Text
Идентификатор кодека : tx3g
Продолжительность : 1 ч. 40 м.
Вид битрейта : Переменный
Битрейт : 95 бит/сек
Размер потока : 69,9 Кбайт (0%)
Заголовок : Full
Язык : English
Forced : Нет
Дата кодирования : UTC 2021-03-27 19:39:31
Дата пометки : UTC 2021-03-27 19:39:31
[mytorrents.biz].t681243.torrent
Torrent: Registered [ 2021-04-26 17:53 ] · CDCA47D076DE5E4D3A070B53276AC9B352558325

Download .torrent

Download


Помочь трекеру

Status: checked
Size: 13.34 GB   (Completed: 2 times)
Rate: 
(Vote: 1)
Has thanked: 1  Thanks   (List)
Золото/Серебро:

Инструкция
Похожие темы

holnazarov ®

Gender: Male

Longevity: 9 years 1 month

Posts: 242

Location: от туда mytorrents.biz

Репутация: 2301 [+]

Наличие запрета:

[Profile] [PM]

Post 26-Apr-2021 17:52 (after 42 minutes)

[Quote]

404 ошибка при скачивания торент

ozod5555

Gender: Male

Longevity: 4 years 8 months

Posts: 178

Location: Uzbekistan Farg'ona

Репутация: 16 [+]

Наличие запрета:

[Profile] [PM]

Post 26-Apr-2021 20:13 (after 2 hours 20 minutes)

[Quote]

Почему ошибка торент Ты знаешь

holnazarov ®

Gender: Male

Longevity: 9 years 1 month

Posts: 242

Location: от туда mytorrents.biz

Репутация: 2301 [+]

Наличие запрета:

[Profile] [PM]

Post 01-May-2021 19:53 (after 4 days)

[Quote]

1456027Почему ошибка торент Ты знаешь
это ошибка сайта он глучит местами
Display posts:    
Reply to topic

Current time is: 14-Jun 01:38

All times are UTC + 5



You cannot post new topics in this forum
You cannot reply to topics in this forum
You cannot edit your posts in this forum
You cannot delete your posts in this forum
You cannot vote in polls in this forum
You cannot attach files in this forum
You cannot download files in this forum